Torrent Details

Goosebumps 2 Haunted Halloween (2018) x 808 (1080p) 5 1 - 2 0 x264 Phun Psyz
Goosebumps 2 Haunted Halloween (2018) x 808 (1080p) 5 1 - 2 0 x264 Phun Psyz
Size1.7 GB in 1 file
ReleasesAdded on 01/05/19 at 12:30pm into the Movies category by Unknown.
Status3 seeds & 4 peers.
Hash15dc2cc75c3a5c129b9b1d15bd9c921b78e6e948
Rating
  • YourBT Visitors

Status This torrent has been verified.
*

Torrent Description

www.imdb.com/title/tt5664636/

Two young friends find a magic book that brings a ventriloquist's dummy to life.

Source: Geckos







Format : MPEG-4
Format profile : Base Media / Version 2
Codec ID : mp42 (isom/iso2/avc1/mp41)
File size : 1.67 GiB
Duration : 1 h 29 min
Overall bit rate mode : Variable
Overall bit rate : 2 656 kb/s

Video
ID : 1
Format : AVC
Format/Info : Advanced Video Codec
Format profile : [email protected]
Format settings : CABAC / 1 Ref Frames
Format settings, CABAC : Yes
Format settings, ReFrames : 1 frame
Codec ID : avc1
Codec ID/Info : Advanced Video Coding
Duration : 1 h 29 min
Bit rate : 2 170 kb/s
Width : 1 920 pixels
Height : 808 pixels
Display aspect ratio : 2.40:1
Frame rate mode : Variable
Frame rate : 23.976 (24000/1001) FPS
Minimum frame rate : 23.974 FPS
Maximum frame rate : 23.981 FPS
Color space : YUV
Chroma subsampling : 4:2:0
Bit depth : 8 bits
Scan type : Progressive
Bits/(Pixel*Frame) : 0.058
Stream size : 1.36 GiB (82%)
Writing library : x264 core 155 r2901 7d0ff22

Audio #1
ID : 2
Format : AC-3
Format/Info : Audio Coding 3
Commercial name : Dolby Digital
Codec ID : ac-3
Duration : 1 h 29 min
Bit rate mode : Constant
Bit rate : 320 kb/s
Channel(s) : 6 channels
Channel layout : L R C LFE Ls Rs
Sampling rate : 48.0 kHz
Frame rate : 31.250 FPS (1536 SPF)
Bit depth : 16 bits
Compression mode : Lossy
Stream size : 206 MiB (12%)
Title : Surround / Surround
Language : English

Audio #2
ID : 3
Format : AAC LC
Format/Info : Advanced Audio Codec Low Complexity
Codec ID : mp4a-40-2
Duration : 1 h 29 min
Bit rate mode : Variable
Bit rate : 160 kb/s
Channel(s) : 2 channels
Channel layout : L R
Sampling rate : 48.0 kHz
Frame rate : 46.875 FPS (1024 SPF)
Compression mode : Lossy
Stream size : 103 MiB (6%)
Title : Stereo / Stereo
Language : English

Text
Language : English
Default : Yes
Forced : No



Similar Torrents

No Similar Torrents Found

If we find similar torrents, we normally show them right here. We couldn't find anything for "".

Torrent Trackers

TRACKER URLSEEDSPEERS
Onlineudp://tracker.opentrackr.org:1337/announce34

Files inside this torrent

FILENAMESIZE
icon Goosebumps 2 Haunted Halloween (2018) x 808 (1080p) 5.1 - 2.0 x264 Phun Psyz.mp41.7 GB